Welcome to FzMovies

The Best destination for Mobile/Tablet Movies


Join our Telegram Channel to get latest updates Join @FzGroup

Follow us on Twitter to get latest updates Follow @FzGroup

We have exciting news:
1. The error on search result page which showed every movie as BluRayExt has been fixed. The quality of movie we have is shown correctly now.

2. We have divided movie list into multiple pages, So the loading time will decrease considerably.

— FzMovies (@FzGroup) September 22, 2018
Loading...


MobileTVshows - TV shows / cartoons for mobiles in avi and mp4....http://www.mobiletvshows.net


Mediainfo 1915

1915 (in Hollywood Movies)
File: 1915_BDRip_high.mp4
File Size: 192 MB


General

Complete name : 1915_BDRip_high.mp4
Format : MPEG-4
Format profile : Base Media
Codec ID : isom (isom/iso2/avc1/mp41)
File size : 192 MiB
Duration : 1 h 22 min
Overall bit rate : 324 kb/s
Movie name : RARBG.COM - 1915.2015.1080p.WEB-DL.DD5.1.H264-RARBG
Writing application : Lavf57.19.100

Video

ID : 1
Format : AVC
Format/Info : Advanced Video Codec
Format profile : [email protected]
Format settings : CABAC / 5 Ref Frames
Format settings, CABAC : Yes
Format settings, ReFrames : 5 frames
Codec ID : avc1
Codec ID/Info : Advanced Video Coding
Duration : 1 h 22 min
Bit rate : 270 kb/s
Width : 640 pixels
Height : 344 pixels
Display aspect ratio : 1.85:1
Frame rate mode : Constant
Frame rate : 23.976 (23976/1000) FPS
Color space : YUV
Chroma subsampling : 4:2:0
Bit depth : 8 bits
Scan type : Progressive
Bits/(Pixel*Frame) : 0.051
Stream size : 160 MiB (83%)
Title : 1915.2015.1080p.WEB-DL.DD5.1.H264-RARBG
Writing library : x264 core 142 r2 ac76440
Encoding settings : cabac=1 / ref=5 / deblock=1:-1:-1 / analyse=0x3:0x113 / me=umh / subme=8 / psy=1 / psy_rd=1.00:0.15 / mixed_ref=1 / me_range=16 / chroma_me=1 / trellis=1 / 8x8dct=1 / cqm=0 / deadzone=21,11 / fast_pskip=1 / chroma_qp_offset=-3 / threads=18 / lookahead_threads=2 / sliced_threads=0 / nr=0 / decimate=1 / interlaced=0 / bluray_compat=0 / constrained_intra=0 / bframes=3 / b_pyramid=2 / b_adapt=2 / b_bias=0 / direct=3 / weightb=1 / open_gop=0 / weightp=2 / keyint=250 / keyint_min=23 / scenecut=40 / intra_refresh=0 / rc_lookahead=50 / rc=2pass / mbtree=1 / bitrate=270 / ratetol=1.0 / qcomp=0.60 / qpmin=0 / qpmax=69 / qpstep=4 / cplxblur=20.0 / qblur=0.5 / ip_ratio=1.40 / aq=1:1.00
Language : English
Menus : 3

Audio

ID : 2
Format : AAC
Format/Info : Advanced Audio Codec
Format profile : LC
Codec ID : mp4a-40-2
Duration : 1 h 22 min
Duration_LastFrame : -15 ms
Bit rate mode : Constant
Bit rate : 48.0 kb/s
Channel(s) : 2 channels
Channel(s)_Original : 1 channel
Channel positions : Front: C
Sampling rate : 44.1 kHz
Frame rate : 43.066 FPS (1024 SPF)
Compression mode : Lossy
Stream size : 28.5 MiB (15%)
Title : 1915.2015.1080p.WEB-DL.DD5.1.H264-RARBG
Language : English
Default : Yes
Alternate group : 1
Menus : 3

Menu #1

ID : 3
Codec ID : text
Duration : 1 h 22 min
Language : English
Bit rate mode : CBR
Menu For : 1,2
00:00:00.000 : Chapter 1
00:10:01.000 : Chapter 2
00:22:14.000 : Chapter 3
00:31:40.000 : Chapter 4
00:41:51.000 : Chapter 5
00:53:13.000 : Chapter 6
01:03:45.000 : Chapter 7
01:14:03.000 : Chapter 8
01:18:37.000 : Chapter 9

Menu #2

00:00:00.000 : Chapter 1
00:10:01.000 : Chapter 2
00:22:14.000 : Chapter 3
00:31:40.000 : Chapter 4
00:41:51.000 : Chapter 5
00:53:13.000 : Chapter 6
01:03:45.000 : Chapter 7
01:14:03.000 : Chapter 8
01:18:37.000 : Chapter 9

Download 1915 ()

1915 (in Hollywood Movies)
File: 1915_BDRip_high.mp4
File Size: 192 MB
Loading...