Welcome to FzMovies

The Best destination for Mobile/Tablet Movies



Loading...

Join our Telegram Channel to get latest updates Join @FzGroup

Follow us on Twitter to get latest updates Follow @FzGroup

MobileTVshows - TV shows / cartoons for mobiles in avi and mp4....http://www.mobiletvshows.net



Mediainfo 100 Bloody Acres

100 Bloody Acres (in Hollywood Movies)
File: 100_Bloody_Acres_HDRip_high.mp4
File Size: 196 MB


General

Complete name : 100_Bloody_Acres_HDRip_high.mp4
Format : MPEG-4
Format profile : Base Media
Codec ID : isom (isom)
File size : 196 MiB
Duration : 1 h 30 min
Overall bit rate mode : Variable
Overall bit rate : 301 kb/s
Encoded date : UTC 2013-09-11 17:32:42
Tagged date : UTC 2013-09-11 17:32:42

Video

ID : 1
Format : AVC
Format/Info : Advanced Video Codec
Format profile : [email protected]
Format settings : CABAC / 5 Ref Frames
Format settings, CABAC : Yes
Format settings, ReFrames : 5 frames
Codec ID : avc1
Codec ID/Info : Advanced Video Coding
Duration : 1 h 30 min
Bit rate : 250 kb/s
Maximum bit rate : 1 252 kb/s
Width : 640 pixels
Height : 264 pixels
Display aspect ratio : 2.40:1
Frame rate mode : Constant
Frame rate : 23.976 (24000/1001) FPS
Color space : YUV
Chroma subsampling : 4:2:0
Bit depth : 8 bits
Scan type : Progressive
Bits/(Pixel*Frame) : 0.062
Stream size : 163 MiB (83%)
Writing library : x264 core 133
Encoding settings : cabac=1 / ref=5 / deblock=1:-1:-1 / analyse=0x3:0x113 / me=umh / subme=8 / psy=1 / psy_rd=1.00:0.15 / mixed_ref=1 / me_range=16 / chroma_me=1 / trellis=1 / 8x8dct=1 / cqm=0 / deadzone=21,11 / fast_pskip=1 / chroma_qp_offset=-3 / threads=18 / lookahead_threads=2 / sliced_threads=0 / nr=0 / decimate=1 / interlaced=0 / bluray_compat=0 / constrained_intra=0 / bframes=3 / b_pyramid=2 / b_adapt=2 / b_bias=0 / direct=3 / weightb=1 / open_gop=0 / weightp=2 / keyint=250 / keyint_min=23 / scenecut=40 / intra_refresh=0 / rc_lookahead=50 / rc=2pass / mbtree=1 / bitrate=250 / ratetol=1.0 / qcomp=0.60 / qpmin=0 / qpmax=69 / qpstep=4 / cplxblur=20.0 / qblur=0.5 / ip_ratio=1.40 / aq=1:1.00
Tagged date : UTC 2013-09-11 17:32:43

Audio

ID : 2
Format : AAC
Format/Info : Advanced Audio Codec
Format profile : HE-AAC / LC
Format settings : Explicit
Codec ID : mp4a-40-2
Duration : 1 h 30 min
Bit rate mode : Variable
Bit rate : 48.0 kb/s
Maximum bit rate : 63.6 kb/s
Channel(s) : 2 channels
Channel positions : Front: L R
Sampling rate : 48.0 kHz / 24.0 kHz
Frame rate : 23.438 FPS (1024 SPF)
Compression mode : Lossy
Stream size : 31.2 MiB (16%)
Encoded date : UTC 2013-09-11 17:32:43
Tagged date : UTC 2013-09-11 17:32:43

Download 100 Bloody Acres ()

100 Bloody Acres (in Hollywood Movies)
File: 100_Bloody_Acres_HDRip_high.mp4
File Size: 196 MB


Loading...